War.For.The.Planet.Of.The.Apes.2017.1080p.BluRay.x264.chs.eng-EX8

  • Category Movies
  • Type Mp4
  • Language English
  • Total size 2.5 GB
  • Uploaded By qweasdshilk
  • Downloads 109
  • Last checked 2 days ago
  • Date uploaded 5 days ago
  • Seeders 24
  • Leechers 9

War for the Planet of the Apes

ActionAdventureDramaScience Fiction

Caesar and his apes are forced into a deadly conflict with an army of humans led by a ruthless Colonel. After the apes suffer unimaginable losses, Caesar wrestles with his darker instincts and begins his own mythic quest to avenge his kind. As the journey finally brings them face to face, Caesar and the Colonel are pitted against each other in an epic battle that will determine the fate of both their species and the future of the planet.

Infohash : 7D3B94612476A0DAFA8FA17050D2E12255CA61EB

WARING IS NOT RAW

Code:

General
Complete name : 猩球崛起3 终极之战.中英双语字幕.War.For.The.Planet.Of.The.Apes.2017.1080p.BluRay.x264.chs.eng.mp4
Format : MPEG-4
Format profile : Base Media
Codec ID : isom (isom)
File size : 2.47 GiB
Duration : 2 h 20 min
Overall bit rate mode : Variable
Overall bit rate : 2 524 kb/s
Encoded date : UTC
Tagged date : UTC

Video
ID : 1
Format : AVC
Format/Info : Advanced Video Codec
Format profile : [email protected]
Format settings, CABAC : Yes
Format settings, RefFrames : 4 frames
Codec ID : avc1
Codec ID/Info : Advanced Video Coding
Duration : 2 h 20 min
Bit rate : 2 264 kb/s
Maximum bit rate : 28.7 Mb/s
Width : 1 920 pixels
Height : 880 pixels
Display aspect ratio : 2.2:1
Frame rate mode : Constant
Frame rate : 23.976 (24000/1001) FPS
Color space : YUV
Chroma subsampling : 4:2:0
Bit depth : 8 bits
Scan type : Progressive
Bits/(Pixel*Frame) : 0.056
Stream size : 2.22 GiB (90%)
Writing library : x264 core 120 r2164 da19765
Encoding settings : cabac=1 / ref=3 / deblock=1:0:0 / analyse=0x1:0x111 / me=hex / subme=7 / psy=1 / psy_rd=1.00:0.00 / mixed_ref=1 / me_range=16 / chroma_me=1 / trellis=2 / 8x8dct=0 / cqm=0 / deadzone=21,11 / fast_pskip=1 / chroma_qp_offset=-2 / threads=6 / sliced_threads=0 / nr=0 / decimate=1 / interlaced=0 / bluray_compat=0 / constrained_intra=0 / bframes=3 / b_pyramid=2 / b_adapt=1 / b_bias=0 / direct=1 / weightb=1 / open_gop=0 / weightp=2 / keyint=240 / keyint_min=23 / scenecut=40 / intra_refresh=0 / rc=cqp / mbtree=0 / qp=23 / ip_ratio=1.40 / pb_ratio=1.30 / aq=0
Encoded date :
Tagged date :

Audio
ID : 2
Format : AAC
Format/Info : Advanced Audio Codec
Format profile : LC
Codec ID : 40
Duration : 2 h 20 min
Bit rate mode : Variable
Bit rate : 256 kb/s
Maximum bit rate : 279 kb/s
Channel(s) : 6 channels
Channel positions : Front: L C R, Side: L R, LFE
Sampling rate : 48.0 kHz
Frame rate : 46.875 FPS (1024 SPF)
Compression mode : Lossy
Stream size : 257 MiB (10%)
Encoded date :
Tagged date :

Files:

猩球崛起3 终极之战.中英双语字幕.War.For.The.Planet.Of.The.Apes.2017.1080p.BluRay.x264.chs.eng-EX8
  • 猩球崛起3 终极之战.中英双语字幕.War.For.The.Planet.Of.The.Apes.2017.1080p.BluRay.x264.chs.eng.mp4-EX8.mp4 (2.5 GB)
  • 猩球崛起3 终极之战.中英双语字幕.War.For.The.Planet.Of.The.Apes.2017.1080p.BluRay.x264.chs.eng-EX8.nfo (2.9 KB)
  • www.ex8zz.xin (1.7 KB)
  • 远鉴字幕组翻译 小愿8压制组压制 (0.2 KB)

There are currently no comments. Feel free to leave one :)

Code:

  • udp://tracker.coppersurfer.tk:6969/announce
  • udp://9.rarbg.com:2710/announce
  • udp://p4p.arenabg.com:1337
  • udp://tracker.leechers-paradise.org:6969
  • udp://tracker.internetwarriors.net:1337
  • udp://tracker.opentrackr.org:1337/announce